(navigation image)
Home Audio Books & Poetry | Community Audio | Computers & Technology | Grateful Dead | Live Music Archive | Music, Arts & Culture | Netlabels | News & Public Affairs | Non-English Audio | Podcasts | Radio Programs | Spirituality & Religion | The Shady Trees | BRYAC Funk Allstars
Search: Advanced Search
Anonymous User (login or join us)
Upload

Listen to audio

item image
Run time: 58:21

Stream (help[help])

VBR M3U
MP3 via M3U

Play / Download (help[help])

VBR ZIP

Ogg Vorbis

Lossless zip


All Files: HTTPS Torrent (2/0)

Resources

Bookmark

Reason For LeavingReason For Leaving Live at Library Mall on 2005-10-01 (October 1, 2005)

something has gone horribly wrong 8-p
Prefer flash? · Embed · Questions/Feedback?


Collection: ReasonForLeaving
Band/Artist: Reason For Leaving
Date: October 1, 2005 (check for other copies)
Venue: Library Mall
Location: Madison WI

Source: KM140's > MV100 > SBM-1 (Doug Oade mod) @48KHz > Sony PCM-M1 > DAT
Lineage: DAT > FLAC
Taped by: TAS
Transferred by: TAS
Keywords: Live concert; free show; Harvest Fest; Legalize Marijuana


Description

Two Joints, Elven Girlfriend, Wetter, Shame, Fancy Pantses, Who's Got The Herb, Freedom, Kick Down, banter, Shades Of Pain, break music

Notes

35th Annual Midwest Marijuana Harvest Festival
also playing on Oct 1st were Cracked Badger, Del Mar, Liquid Omega, El Donk, Little Marsh Overflow
LMO set is here- http://www.archive.org/details/lmo2005-10-01-flac16

Two Joints 2:33
Elven Girlfriend 4:02
Wetter 4:41
Shame 6:22
Fancy Pantses 5:32
Who's Got The Herb 12:16
Freedom 6:14
Kick Down 5:16
banter 1:14
Shades Of Pain 6:49
break music 3:17


length expanded size cdr WAVE problems filename
2:33.73 27160940 --- -- ---xx rfl2005-10-01t01.flac
4:02.17 42728828 --- -- ---xx rfl2005-10-01t02.flac
4:41.14 49601372 --- -- ---xx rfl2005-10-01t03.flac
6:22.38 67474220 --- -- ---xx rfl2005-10-01t04.flac
5:32.23 58618940 --- -- ---xx rfl2005-10-01t05.flac
12:16.13 129861020 --- -- ---xx rfl2005-10-01t06.flac
6:14.15 66008924 --- -- ---xx rfl2005-10-01t07.flac
5:16.48 55855340 --- -- ---xx rfl2005-10-01t08.flac
1:14.04 13063052 --- -- ---xx rfl2005-10-01t09.flac
6:49.58 72284060 --- -- ---xx rfl2005-10-01t10.flac
3:17.04 34760252 --- -- ---xx rfl2005-10-01t11.flac
58:20.07 617416948 B (totals for 11 files, 0.5237 overall compression ratio)


rfl2005-10-01t01.flac:e99298c1f9a0a71c9326894662744e7c
rfl2005-10-01t02.flac:ca5208563689e9afb54a680507f9fe9f
rfl2005-10-01t03.flac:a62102b5dc10470081f45837b3c25c15
rfl2005-10-01t04.flac:95c2f4c7be4ce580ceba8a3bedd5cfce
rfl2005-10-01t05.flac:3af620d6f4c9e5c8cfff3badfb7df9e8
rfl2005-10-01t06.flac:89b83a592dc8161cc59f95a1e8ce7c1b
rfl2005-10-01t07.flac:d484670caf63bd651a96fbb06101592e
rfl2005-10-01t08.flac:a0456dea412808a199a03c62a9095f37
rfl2005-10-01t09.flac:4f72483e77cea3f8710e4ff2c20c187b
rfl2005-10-01t10.flac:daaf8133dc546271d3ad603b7bebcaf6
rfl2005-10-01t11.flac:ea1dd297a20d3318620e9de892756dee

Individual Files

Audio Files Flac VBR MP3 Ogg Vorbis
Two Joints 13.3 MB
3.5 MB
1.9 MB
Elven Girlfriend 21.3 MB
5.7 MB
3.0 MB
Wetter 23.7 MB
6.3 MB
3.5 MB
Shame 29.4 MB
8.4 MB
4.6 MB
Fancy Pantses 30.6 MB
7.5 MB
4.1 MB
Who's Got The Herb? 66.2 MB
17.0 MB
9.3 MB
Freedom 34.6 MB
8.6 MB
4.7 MB
Kick Down 28.7 MB
7.2 MB
4.0 MB
banter 4.9 MB
1.7 MB
904.1 KB
Shades Of Pain 39.9 MB
9.7 MB
5.2 MB
break music 15.9 MB
4.7 MB
2.5 MB
Image Files JPEG JPEG Thumb
Harvestfest Handbill 1 98.5 KB
8.9 KB
Harvestfest Handbill 2 22.5 KB
5.8 KB
Information FormatSize
rfl2005-10-01-flac.ffp Flac FingerPrint 605.0 B
rfl2005-10-01-flac16.ffp Flac FingerPrint 605.0 B
rfl2005-10-01-flac16.md5 Checksums 616.0 B
rfl2005-10-01-flac16_files.xml Metadata [file]
rfl2005-10-01-flac16_meta.xml Metadata 4.1 KB
rfl2005-10-01-flac16_reviews.xml Metadata 181.0 B
Other Files Archive BitTorrent Text
rfl2005-10-01-flac16_archive.torrent 25.3 KB
informative textfile 2.0 KB

Be the first to write a review
Downloaded 3,669 times
Reviews